MOST-DOWNLOADS
 
HomeFAQSearchMemberlistUsergroupsRegisterLog in

Share | 
 

 Madonna feat Justin Timberlake

View previous topic View next topic Go down 
AuthorMessage
Ultimate Machine
Admin
avatar

Male Number of posts : 42
Registration date : 2008-07-27

PostSubject: Madonna feat Justin Timberlake   Wed Oct 01, 2008 1:18 am

Madonna feat Justin Timberlake



General
Complete name : Madonna feat Justin Timberlake.mp4
Format : MPEG-4
Format profile : Base Media
Codec ID : isom
File size : 9.87 MiB
Duration : 4mn 6s
Overall bit rate : 336 Kbps
Movie name : 4 Minutes Video - Madonna feat Justin Timberlake Timbaland
Encoded date : UTC 1970-01-01 00:00:00
Tagged date : UTC 2008-07-05 08:34:01
Writing application : Tunebite

Video
Format : MPEG-4 Visual
Format profile : Simple@L1
Format settings, BVOP : No
Format settings, QPel : No
Format settings, GMC : No warppoints
Format settings, Matrix : Default
Codec ID : 20
Duration : 4mn 6s
Bit rate mode : Variable
Bit rate : 260 Kbps
Maximum bit rate : 735 Kbps
Width : 320 pixels
Height : 240 pixels
Display aspect ratio : 4/3
Frame rate mode : Constant
Frame rate : 25.000 fps
Resolution : 8 bits
Colorimetry : 4:2:0
Scan type : Progressive
Bits/(Pixel*Frame) : 0.135
Stream size : 7.61 MiB (77%)
Writing library : Lavc51.44.0
Language : English
Encoded date : UTC 1970-01-01 00:00:00
Tagged date : UTC 1970-01-01 00:00:00

Audio
Format : AAC
Format/Info : Advanced Audio Codec
Format version : Version 4
Format profile : LC
Format settings, SBR : No
Codec ID : 40
Duration : 4mn 4s
Bit rate mode : Variable
Bit rate : 72.0 Kbps
Maximum bit rate : 81.9 Kbps
Channel(s) : 2 channels
Channel positions : L R
Sampling rate : 48.0 KHz
Resolution : 16 bits
Stream size : 2.11 MiB (21%)
Language : English
Encoded date : UTC 1970-01-01 00:00:00
Tagged date : UTC 1970-01-01 00:00:00



DOWNLOAD:
rapidshare.com 4_Minutes_Video_-_Madonna_feat_Justin_Timberlake.rar
Back to top Go down
View user profile http://most-downloads.forumotion.net
 
Madonna feat Justin Timberlake
View previous topic View next topic Back to top 
Page 1 of 1
 Similar topics
-
» Bird Feeder Cam
» Nujabes - Luv (Sic) Pt 3 (Feat Shing02) Mp3

Permissions in this forum:You cannot reply to topics in this forum
MOST-DOWNLOADS :: DOWNLOAD :: Music-
Jump to: